<?xml version="1.0" standalone="no"?>
<!DOCTYPE svg PUBLIC "-//W3C//DTD SVG 1.1//EN" "http://www.w3.org/Graphics/SVG/1.1/DTD/svg11.dtd" >
<svg xmlns="http://www.w3.org/2000/svg">
<metadata>Generated by IcoMoon</metadata>
<defs>
<font id="icoocean" horiz-adv-x="1024">
<font-face units-per-em="1024" ascent="960" descent="-64" />
<missing-glyph horiz-adv-x="1024" />
<glyph unicode="&#x20;" horiz-adv-x="512" d="" />
<glyph unicode="&#xe900;" glyph-name="arrow-left" d="M422.458 159.112l-264.494 264.494c-20.664 20.664-20.664 53.726 0 74.389l264.494 264.494c20.664 20.664 53.726 20.664 74.389 0s20.664-53.726 0-74.389l-173.574-174.952h505.57c28.929 0 52.348-23.418 52.348-52.348s-23.418-52.348-52.348-52.348h-505.57l173.574-173.574c9.643-9.643 15.154-23.418 15.154-37.194s-5.51-27.552-15.154-37.194c-20.664-22.042-53.726-22.042-74.389-1.378z" />
<glyph unicode="&#xe901;" glyph-name="arrow-left2" d="M473.92 463.62l276.432-282.074-98.726-101.546-377.98 377.98 377.98 383.62 98.726-95.906z" />
<glyph unicode="&#xe902;" glyph-name="arrow-left3" d="M771.508 841.6l39.49-32.438-279.254-356.824 275.022-339.9-38.080-32.438-297.588 372.338zM513.41 841.6l39.49-32.438-275.022-356.824 266.56-339.9-38.080-32.438-293.357 372.338z" />
<glyph unicode="&#xe903;" glyph-name="complaint" d="M511.123 327.933c-24.992 0-45.263-20.605-45.263-46.089 0-25.448 20.271-46.082 45.263-46.082 25.022 0 45.227 20.669 45.227 46.082 0 25.484-20.271 46.089-45.227 46.089v0zM511.087 718.201c-24.984 0-45.262-20.67-45.262-46.090v-236.667c0-25.455 20.279-46.089 45.262-46.089 25.023 0 45.263 20.669 45.263 46.089v236.633c0 25.484-20.306 46.122-45.263 46.122v0zM857.078 640.467c-0.496 37.482-1.089 78.394-1.153 123.259-0.036 13.588-8.832 25.55-21.627 29.444-103.55 31.218-195.959 49.513-318.925 63.131-1.578 0.165-3.163 0.196-4.779 0.165-62.441-3.265-120.855-11.045-173.638-23.209-52.878-12.201-103.348-25.716-149.9-40.124-12.692-3.923-21.394-15.856-21.394-29.408 0-40.45-0.433-77.633-0.796-112.116-3.228-295.911-4.446-406.685 284.573-567.135 24.001-13.251 43.353-19.22 62.769-19.22 19.25 0 38.507 5.771 62.378 18.729 287.932 156.691 286.682 249.397 282.492 556.485v0zM546.163 138.208c-14.602-7.943-25.121-11.535-33.921-11.535-8.934 0-19.090 3.528-33.923 11.767-257.142 142.748-256.29 221.081-253.124 512.439 0.299 28.088 0.665 57.959 0.731 89.872 39.161 11.598 80.898 22.515 124.379 32.501 48.729 11.242 102.892 18.534 160.948 21.631 109.32-12.2 193.678-28.221 284.406-54.335 0.197-36.228 0.659-69.755 1.087-100.944 4.156-299.968 4.98-362.338-250.584-501.399v0z" />
<glyph unicode="&#xe904;" glyph-name="arrow-right" d="M527.154 159.098c-9.644 9.644-15.154 23.42-15.154 37.196s5.51 27.552 15.154 37.196l173.582 173.582h-505.592c-28.93 0-52.35 23.42-52.35 52.35s23.42 52.35 52.35 52.35h505.592l-173.582 176.338c-20.664 20.664-20.664 53.728 0 74.392s53.728 20.664 74.392 0l264.506-264.506c20.664-20.664 20.664-53.728 0-74.392l-264.506-264.506c-20.664-20.664-53.728-20.664-74.392 0z" />
<glyph unicode="&#xe905;" glyph-name="arrow-right2" d="M273.648 745.694l98.726 95.906 377.98-383.62-377.98-377.98-98.726 101.546 276.432 282.074z" />
<glyph unicode="&#xe906;" glyph-name="arrow-right3" d="M552.9 452.338l-297.588-372.338-38.080 32.438 275.022 339.9-279.254 356.824 39.49 32.438zM810.998 452.338l-293.357-372.338-38.080 32.438 266.56 339.9-275.022 356.824 39.49 32.438z" />
<glyph unicode="&#xe907;" glyph-name="check" d="M512 864c-223.105 0-403.2-180.095-403.2-403.2s180.095-403.2 403.2-403.2 403.2 180.095 403.2 403.2-180.095 403.2-403.2 403.2zM747.201 569.664l-254.016-272.831c-16.128-17.473-45.697-16.128-60.48 2.687l-158.593 190.849c-14.783 16.128-12.096 43.007 5.377 56.448 16.128 14.783 43.007 12.096 56.448-5.377l129.024-155.903 224.447 237.888c14.783 16.128 40.32 16.128 59.135 2.687 14.783-14.783 16.128-40.32-1.345-56.448z" />
<glyph unicode="&#xe908;" glyph-name="close" d="M813.702 762.502v0c-20.664 20.664-53.728 20.664-73.014 0l-228.688-228.688-228.688 228.688c-20.664 20.664-53.728 20.664-73.014 0v0c-20.664-20.664-20.664-53.728 0-73.014l228.688-228.688-228.688-228.688c-20.664-20.664-20.664-53.728 0-73.014v0c20.664-20.664 53.728-20.664 73.014 0l228.688 228.688 228.688-228.688c20.664-20.664 53.728-20.664 73.014 0v0c20.664 20.664 20.664 53.728 0 73.014l-228.688 228.688 228.688 228.688c20.664 19.286 20.664 52.35 0 73.014z" />
<glyph unicode="&#xe909;" glyph-name="download" d="M471.54 809.6h82.316c15.348 0 22.324-6.976 22.324-22.324v-347.404c0-13.952-6.976-22.324-22.324-22.324h-82.316c-15.348 0-22.324 6.976-22.324 22.324v347.404c0 15.348 6.976 22.324 22.324 22.324v0zM729.652 423.13l-195.328-192.538c-12.556-11.162-32.090-11.162-44.646 0l-195.328 192.538c-8.372 8.372-11.162 22.324-6.976 34.88 4.186 11.162 16.742 19.532 29.3 19.532h390.656c12.556 0 23.718-8.372 29.3-19.532 4.186-12.556 1.396-26.508-6.976-34.88v0zM814.758 112h-605.516c-26.508 2.79-46.042 23.718-46.042 50.228s19.532 47.436 46.042 50.228h605.516c26.508-2.79 46.042-23.718 46.042-50.228s-19.532-47.436-46.042-50.228v0z" />
<glyph unicode="&#xe90a;" glyph-name="facebook" d="M695.633 445.748h-118.91v-406.4h-176.107v406.4h-96.332v139.982h91.816v88.806c3.010 111.384 54.187 177.612 195.674 177.612h118.91v-139.982h-70.744c-55.692 0-58.702-19.567-58.702-55.692v-66.228h136.972l-22.578-144.498z" />
<glyph unicode="&#xe90b;" glyph-name="favorite" d="M863.348 675.293c-25.003 39.477-60.532 67.111-101.324 88.165-42.11 17.107-88.165 21.055-131.59 11.844-47.373-11.844-84.217-36.846-117.116-71.058-32.899 34.214-71.058 57.899-114.483 67.111-46.058 10.526-89.483 5.263-134.223-11.844-42.11-17.107-77.639-47.373-101.324-84.217-25.003-42.11-39.477-84.217-39.477-134.223 0-57.899 22.37-117.116 60.532-163.174l235.547-259.235c25.003-32.899 57.899-50.005 96.061-50.005v0c36.846 0 71.058 17.107 96.061 50.005l247.391 276.342c32.899 42.11 47.373 89.483 47.373 147.382-3.948 47.373-18.422 90.798-43.425 132.908z" />
<glyph unicode="&#xe90c;" glyph-name="link" d="M253.653 330.88c-16.427-19.413-25.387-40.32-25.387-67.2 0-22.4 7.467-50.773 26.88-67.2s41.813-26.88 67.2-26.88c22.4 0 50.773 8.96 67.2 26.88l119.467 123.947c11.947 13.44 35.84 13.44 52.267 0 13.44-13.44 13.44-31.36 0-44.8l-123.947-125.44c-31.36-31.36-71.68-47.787-116.48-47.787s-83.627 16.427-116.48 47.787c-31.36 31.36-47.787 70.187-47.787 116.48 0 40.32 16.427 85.12 47.787 107.52l147.84 146.347c31.36 31.36 71.68 47.787 116.48 47.787s83.627-16.427 116.48-47.787c5.973-5.973 8.96-11.947 8.96-22.4 0-8.96-5.973-17.92-8.96-22.4-5.973-5.973-11.947-8.96-22.4-8.96-8.96 0-17.92 5.973-22.4 8.96-41.813 35.84-98.56 35.84-138.88 0l-147.84-144.853zM816.64 545.92l-146.347-146.347c-16.427-16.427-32.853-26.88-52.267-35.84s-40.32-11.947-62.72-11.947c-44.8 0-83.627 16.427-116.48 47.787-13.44 13.44-13.44 31.36 0 44.8s31.36 13.44 44.8 0c41.813-35.84 98.56-35.84 138.88 0l152.32 144.853c16.427 19.413 26.88 41.813 26.88 67.2 0 22.4-8.96 50.773-26.88 67.2-19.413 16.427-41.813 26.88-67.2 26.88-22.4 0-50.773-8.96-67.2-26.88l-123.947-123.947c-13.44-13.44-31.36-13.44-44.8 0s-13.44 31.36 0 44.8l123.947 123.947c31.36 34.347 68.693 50.773 114.987 50.773 38.827 0 83.627-16.427 110.507-47.787 61.227-62.72 61.227-165.76-4.48-225.493z" />
<glyph unicode="&#xe90d;" glyph-name="menu" d="M153.966 519.116h717.424v-116.632h-717.424v116.632zM153.966 745.6h717.424v-116.632h-717.424v116.632zM153.966 292.632h717.424v-116.632h-717.424v116.632z" />
<glyph unicode="&#xe90e;" glyph-name="pinterest" d="M329.804 33.776c-2.846 39.856-5.694 108.18 2.846 146.612 5.694 39.856 56.936 251.944 56.936 251.944s-15.658 31.315-15.658 76.864c0 69.748 39.856 125.26 91.098 125.26 42.702 0 65.476-34.162 65.476-74.018 0-42.702-27.044-109.602-42.702-169.386-11.388-51.242 25.622-91.098 74.018-91.098 86.828 0 159.422 93.946 159.422 234.862 0 120.99-85.404 207.818-209.242 207.818-139.494 0-224.898-109.602-224.898-220.628 0-42.702 15.658-91.098 35.586-116.72 2.846-5.694 5.694-8.54 2.846-15.658-2.846-15.658-11.388-51.242-15.658-56.936-2.846-8.54-5.694-11.388-15.658-5.694-65.476 31.315-99.638 120.99-99.638 199.278-2.846 157.998 113.872 304.61 328.808 304.61 173.656 0 307.456-125.26 307.456-294.646 0-176.503-109.602-317.42-259.060-317.42-51.242 0-95.368 27.044-116.72 56.936 0 0-25.622-95.368-31.315-120.99-11.388-46.972-42.702-99.638-59.784-133.8-12.81-15.658-25.622-29.892-34.162 12.81z" />
<glyph unicode="&#xe90f;" glyph-name="point" d="M312.903 460.8c0-46.833-37.967-84.8-84.8-84.8s-84.8 37.967-84.8 84.8c0 46.833 37.967 84.8 84.8 84.8s84.8-37.967 84.8-84.8zM596.8 460.8c0-46.833-37.967-84.8-84.8-84.8s-84.8 37.967-84.8 84.8c0 46.833 37.967 84.8 84.8 84.8s84.8-37.967 84.8-84.8zM880.697 460.8c0-46.833-37.967-84.8-84.8-84.8s-84.8 37.967-84.8 84.8c0 46.833 37.967 84.8 84.8 84.8s84.8-37.967 84.8-84.8z" />
<glyph unicode="&#xe910;" glyph-name="search" d="M903.058 93.83l-127.518 127.518c62.342 65.176 99.182 151.606 99.182 247.952 1.416 196.946-158.69 359.886-358.469 359.886-201.196 0-361.302-162.94-361.302-361.302s160.106-361.302 361.302-361.302c79.344 0 153.022 25.504 211.114 69.426l128.936-128.936c8.502-8.502 21.254-12.752 31.172-8.502 12.752 2.834 21.254 12.752 24.086 24.086 4.25 12.752 0 24.086-8.502 31.172zM221.54 467.884c0 162.94 130.352 296.126 296.126 296.126 161.524 0 293.292-133.186 293.292-296.126s-130.352-294.71-294.71-294.71-294.71 130.352-294.71 294.71z" />
<glyph unicode="&#xe911;" glyph-name="share-arrow" d="M545.524 667.532v117.335c9.778 48.89 50.286 18.158 50.286 18.158l279.367-240.258c61.463-41.906 4.19-74.032 4.19-74.032l-275.178-238.86c-54.477-40.508-58.668 20.952-58.668 20.952v108.954c-279.367 88.003-392.514-262.606-392.514-262.606-11.174-19.556-16.762 0-16.762 0-108.954 523.816 409.276 550.356 409.276 550.356v0z" />
<glyph unicode="&#xe912;" glyph-name="share" d="M764.394 300.058c-39.48 0-74.731-18.33-98.702-47.94l-252.394 152.282c1.41 8.46 2.82 18.33 2.82 28.2s-1.41 18.33-2.82 28.2l252.394 152.282c22.56-28.2 59.22-47.94 98.702-47.94 67.68 0 124.082 56.4 124.082 124.082s-54.99 124.082-124.082 124.082-124.082-56.4-124.082-124.082c0-12.69 1.41-22.56 5.64-32.43l-259.444-135.362c-25.38 31.020-63.45 52.17-108.572 52.17-78.961-1.41-141.002-63.45-141.002-141.002s62.040-139.592 139.592-139.592c43.71 0 83.192 19.74 108.572 52.17l259.444-135.362c-2.82-9.87-5.64-21.15-5.64-32.43 0-67.68 56.4-124.082 124.082-124.082s124.082 56.4 124.082 124.082-53.58 122.672-122.672 122.672z" />
<glyph unicode="&#xe913;" glyph-name="twitter" d="M818.946 589.967v25c31.944 25 59.722 56.944 81.944 87.5-27.778-13.888-59.722-25-87.5-27.778 31.944 18.056 59.722 56.944 69.444 91.666-31.944-18.056-65.278-31.944-100-43.056-27.778 31.944-69.444 56.944-116.667 56.944-87.5 0-159.722-73.612-159.722-169.444 0-13.888 0-27.778 2.778-43.056-130.556 9.722-245.834 77.778-327.778 183.334-22.222-18.056-27.778-45.834-27.778-77.778 0-59.722 27.778-116.667 69.444-148.612-27.778 0-48.612 9.722-69.444 25 0-84.722 52.778-159.722 126.39-169.444-13.888-8.334-27.778-8.334-43.056-8.334-9.722 0-18.056 0-31.944 2.778 18.056-69.444 81.944-119.444 148.612-119.444-56.944-48.612-123.612-73.612-198.612-73.612-13.888 0-27.778 0-34.722 2.778 69.444-47.222 151.39-77.778 243.056-77.778 291.668-5.556 455.556 258.334 455.556 483.334z" />
<glyph unicode="&#xe914;" glyph-name="muslim" d="M835.316 158.361c6.638 2.385 11.646-6.185 6.487-11.013-50.834-47.54-114.275-82.22-184.759-98.493l-2.727-0.53c-222.454-50.085-443.641 93.984-494.058 321.779s89.066 453.085 311.52 503.17c26.698 6.312 57.352 9.93 88.851 9.93 43.843 0 86.048-7.010 125.556-19.97l-2.847 0.808c6.789-2.172 5.823-12.008-1.267-12.702-207.338-20.124-351.407-222.303-304.943-432.387 46.494-210.084 262.069-331.222 458.184-260.591zM727.092 669.526l44.171-94.195 99.174-15.176c2.075-0.321 3.644-2.096 3.644-4.236 0-1.171-0.471-2.232-1.231-3.006l0.001 0.001-71.899-73.769 14.362-104.001c0.026-0.178 0.042-0.384 0.042-0.593 0-2.367-1.918-4.284-4.284-4.284-0.781 0-1.513 0.209-2.144 0.574l0.021-0.011-85.747 48.878-85.717-48.878c-0.61-0.354-1.342-0.563-2.123-0.563-2.367 0-4.284 1.918-4.284 4.284 0 0.209 0.015 0.415 0.044 0.617l-0.003-0.023 14.362 104.001-71.899 73.769c-0.761 0.773-1.23 1.834-1.23 3.005 0 2.14 1.569 3.914 3.62 4.233l0.024 0.003 99.174 15.176 44.171 94.195c0.702 1.466 2.173 2.461 3.877 2.461s3.177-0.995 3.866-2.435l0.011-0.024z" />
<glyph unicode="&#xe915;" glyph-name="unfavorite" d="M863.348 675.293c-25.003 39.477-60.532 67.111-101.324 88.165-42.11 17.107-88.165 21.055-131.59 11.844-47.373-11.844-84.217-36.846-117.116-71.058-32.899 34.214-71.058 57.899-114.483 67.111-46.058 10.526-89.483 5.263-134.223-11.844-42.11-17.107-77.639-47.373-101.324-84.217-25.003-42.11-39.477-84.217-39.477-134.223 0-57.899 22.37-117.116 60.532-163.174l235.547-259.235c25.003-32.899 57.899-50.005 96.061-50.005 36.846 0 71.058 17.107 96.061 50.005l247.391 276.342c32.899 42.11 47.373 89.483 47.373 147.382-3.948 47.373-18.422 90.798-43.425 132.908zM818.608 429.219l-248.706-277.657c-14.474-18.422-32.899-28.951-53.952-28.951s-39.477 9.211-53.952 28.951l-1.315 1.315-235.547 259.235c-30.266 36.846-47.373 84.217-47.373 128.96 0 36.846 9.211 69.743 31.581 106.59 18.422 27.633 44.74 50.005 76.324 63.165 23.686 9.211 46.058 13.159 67.111 13.159 11.844 0 23.686-1.315 35.529-3.948 31.581-6.58 61.847-23.686 88.165-52.636l38.162-39.477 38.162 39.477c28.951 30.266 56.584 47.373 90.798 56.584 11.844 2.633 22.37 3.948 34.214 3.948 22.37 0 43.425-3.948 63.165-11.844 35.529-18.422 60.532-40.792 78.954-67.111 21.055-34.214 31.581-69.743 35.529-107.905-2.633-46.058-13.159-81.587-36.846-111.853z" />
<glyph unicode="&#xe916;" glyph-name="sound" d="M265.704 644.282l208.619 128.765c24.175 14.918 56.008 7.658 71.12-16.207 5.132-8.105 7.843-17.468 7.843-27.016v-538.057c0-28.16-23.113-50.972-51.612-50.972-9.671 0-19.148 2.682-27.357 7.743l-208.619 128.774h-94.347c-39.906 0-72.256 31.948-72.256 71.36v224.247c0 39.411 32.351 71.36 72.256 71.36h94.347zM290.993 587.769c-4.663-2.918-10.328-4.643-16.393-4.643-0.007 0-0.013 0-0.018 0h-103.225c-5.698 0-10.321-4.563-10.321-10.199v-224.257c0-5.626 4.625-10.199 10.321-10.199h103.227c5.803 0 11.489-1.609 16.413-4.643l200.362-123.656v501.267l-200.362-123.666zM791.588 153.393c-5.593-5.318-13.174-8.593-21.52-8.593-8.716 0-16.593 3.568-22.263 9.321l-0.007 0.007c-5.383 5.468-8.707 12.976-8.707 21.261 0 8.653 3.625 16.457 9.441 21.98l0.014 0.013c152.569 145.609 152.569 381.258 0 526.867-5.824 5.532-9.445 13.336-9.445 21.985 0 8.282 3.321 15.789 8.707 21.258l-0.007-0.007c5.668 5.757 13.554 9.326 22.268 9.326 8.345 0 15.932-3.271 21.532-8.607l-0.013 0.013c177.757-169.653 177.757-445.171 0-614.822zM688.132 275.507c-5.566-5.193-13.057-8.382-21.293-8.382-8.832 0-16.803 3.661-22.483 9.548l-0.007 0.008c-5.243 5.443-8.479 12.857-8.479 21.029 0 8.758 3.717 16.653 9.657 22.187l0.018 0.018c83.447 78.006 83.447 203.769 0 281.786-5.958 5.553-9.674 13.443-9.674 22.207 0 8.168 3.232 15.583 8.486 21.037l-0.007-0.008c5.693 5.895 13.666 9.557 22.493 9.557 8.239 0 15.732-3.188 21.314-8.398l-0.018 0.018c109.244-102.145 109.244-268.47 0-370.611z" />
<glyph unicode="&#xe917;" glyph-name="replay" d="M836.187 460.8c0-173.527-140.673-314.2-314.223-314.2-49.931 0-97.194 11.651-139.123 32.398l-22.868-49.908c47.139-23.571 102.698-37.369 161.479-37.369 0.18 0 0.36 0 0.541 0h-0.028c203.828 0 369.079 165.251 369.079 369.079s-165.228 369.079-369.079 369.079c-190.33 0-347.031-144.093-366.936-329.18h-61.969l94.755-129.684 94.778 129.684h-72.343c19.608 154.695 151.685 274.301 311.692 274.301 173.55 0 314.223-140.673 314.223-314.2zM686.554 486.723c9.009-5.273 14.964-14.902 14.964-25.923s-5.955-20.651-14.823-25.846l-0.141-0.077-239.395-138.21c-4.286-2.509-9.436-3.991-14.934-3.991-16.526 0-29.923 13.39-29.936 29.913v276.423c0.012 16.524 13.411 29.914 29.936 29.914 5.497 0 10.648-1.481 15.075-4.068l-0.142 0.077 239.395-138.21zM457.144 555.805v-190.034l164.567 95.029-164.567 95.029z" />
<glyph unicode="&#xe918;" glyph-name="play" d="M801.679 386.268l-407.175-272.992c-41.166-27.595-96.912-16.6-124.506 24.557-9.522 14.030-15.202 31.337-15.202 49.972 0 0.001 0 0.002 0 0.002v0 545.987c0 49.556 40.178 89.734 89.734 89.734 0.001 0 0.001 0 0.002 0 18.635 0 35.942-5.68 50.287-15.404l-0.315 0.202 407.168-272.992c41.166-27.595 52.165-83.34 24.564-124.506-6.613-9.773-14.784-17.946-24.242-24.356l-0.315-0.202z" />
<glyph unicode="&#xe919;" glyph-name="pause" d="M512 51.2c-225.28 0-409.6 184.32-409.6 409.6s184.32 409.6 409.6 409.6 409.6-184.32 409.6-409.6-184.32-409.6-409.6-409.6zM512 855.506c-217.832 0-394.706-176.872-394.706-394.706s176.872-394.706 394.706-394.706 394.706 176.872 394.706 394.706-176.872 394.706-394.706 394.706zM418.908 274.617c-20.48 0-37.237 16.757-37.237 37.237v297.892c0 20.48 16.757 37.237 37.237 37.237s37.237-16.757 37.237-37.237v-297.892c0-20.48-16.757-37.237-37.237-37.237zM605.092 274.617c-20.48 0-37.237 16.757-37.237 37.237v297.892c0 20.48 16.757 37.237 37.237 37.237s37.237-16.757 37.237-37.237v-297.892c0-20.48-16.757-37.237-37.237-37.237z" />
<glyph unicode="&#xe91a;" glyph-name="muted" d="M257.493 650.4l215.574 133.056c24.981 15.413 57.877 7.915 73.493-16.745 5.301-8.373 8.107-18.048 8.107-27.915v-555.989c0-29.099-23.883-52.672-53.333-52.672-9.995 0-19.787 2.773-28.267 8l-215.574 133.067h-97.493c-41.235 0-74.667 33.013-74.667 73.739v231.723c0 40.725 33.429 73.739 74.667 73.739h97.493zM283.628 592c-4.818-3.013-10.671-4.8-16.942-4.8-0.005 0-0.013 0-0.018 0h-106.666c-5.888 0-10.667-4.715-10.667-10.539v-231.733c0-5.813 4.779-10.539 10.667-10.539h106.667c5.995 0 11.872-1.664 16.96-4.8l207.040-127.776v517.973l-207.040-127.787zM832.565 454.401l86.475-86.475c5.536-5.533 8.959-13.177 8.959-21.621 0-16.885-13.688-30.573-30.573-30.573-8.44 0-16.084 3.421-21.615 8.952l-86.475 86.464-86.475-86.475c-5.532-5.531-13.175-8.952-21.615-8.952-16.885 0-30.573 13.688-30.573 30.573 0 8.444 3.423 16.089 8.959 21.621l86.475 86.475-86.475 86.475c-5.637 5.549-9.132 13.263-9.132 21.793 0 16.884 13.687 30.571 30.571 30.571 8.53 0 16.244-3.495 21.789-9.128l86.479-86.479 86.475 86.475c5.549 5.637 13.263 9.132 21.793 9.132 16.884 0 30.571-13.687 30.571-30.571 0-8.53-3.495-16.244-9.128-21.789l-86.479-86.479z" />
<glyph unicode="&#xe91b;" glyph-name="full-screen" d="M822.824 818.947h-267.804c-21.403 0-38.719-17.316-38.719-38.719s17.316-38.719 38.719-38.719h184.236l-199.508-199.401c-15.165-15.165-15.165-39.579 0-54.744 7.529-7.529 17.423-11.402 27.426-11.402 9.895 0 19.791 3.764 27.318 11.293l189.612 189.612v-181.655c0-21.403 17.316-38.719 38.719-38.719s38.719 17.316 38.719 38.719v285.012c0 21.403-17.316 38.719-38.719 38.719zM460.375 167.184h-184.236l199.508 199.401c15.165 15.165 15.165 39.579 0 54.744s-39.579 15.165-54.744 0l-189.612-189.506v181.655c0 21.403-17.316 38.719-38.719 38.719s-38.719-17.316-38.719-38.719v-285.012c0-21.403 17.316-38.719 38.719-38.719h267.804c21.403 0 38.719 17.316 38.719 38.719s-17.316 38.719-38.719 38.719z" />
<glyph unicode="&#xe91c;" glyph-name="video" d="M588.8 427.2l-110.4-64c-22.4-12.8-51.2 3.2-51.2 30.4v128c0 27.2 28.8 43.2 51.2 30.4l110.4-64c22.4-14.4 22.4-46.4 0-60.8zM755.2 198.4h-499.2c-68.8 0-124.8 56-124.8 124.8v275.2c0 68.8 56 126.4 124.8 126.4h499.2c68.8 0 124.8-56 124.8-124.8v-276.8c0-68.8-56-124.8-124.8-124.8zM256 696c-52.8 0-96-44.8-96-97.6v-275.2c0-52.8 43.2-96 96-96h499.2c52.8 0 96 43.2 96 96v276.8c0 52.8-43.2 96-96 96h-499.2z" />
<glyph unicode="&#xe91d;" glyph-name="home" d="M849.6 582.4l-273.6 230.4c-41.6 32-99.2 32-140.8 0l-273.6-232c-14.4-11.2-19.2-30.4-12.8-48s22.4-28.8 41.6-28.8h16v-328c0-27.2 11.2-52.8 30.4-72s46.4-28.8 73.6-28.8h48c24 0 41.6 19.2 41.6 41.6v147.2c0 46.4 48 84.8 105.6 84.8 27.2 0 52.8-8 75.2-24 19.2-14.4 30.4-36.8 30.4-59.2v-147.2c0-24 19.2-41.6 41.6-41.6h48c27.2 0 54.4 9.6 73.6 28.8s30.4 44.8 30.4 72v326.4h16c19.2 0 35.2 11.2 41.6 28.8s1.6 36.8-12.8 49.6z" />
</font>
</defs>
</svg>
